HD / Akcja
Bałkańska Vendetta-Kill'em All (2017)[BRRip 1080p x264 by alE13 AC3/DTS][Lektor i Napisy PL & Multi][Eng]


Dodał: alE13
Data dodania:
2017-06-19 07:02:01
Rozmiar: 10.28 GB
Ostat. aktualizacja:
2017-06-19 20:32:27
Seedów: 95
Peerów: 377


Komentarze: 0

http://i.imgur.com/anY3aps.jpg

http://www.imdb.com/title/tt5767628/
http://www.filmweb.pl/film/Ba%C5%82ka%C5%84ska+vendetta-2017-781680

Audio DTS MA/Core w osobnym pliku.
Plik zawiera Sample.

reżyseria: Peter Malota
scenariusz: Jesse Cilio,Brian Smolensky,Craig Stewart
gatunek: Akcja
produkcja: USA
premiera: 08-06-2017
muzyka: Aldo Shllaku
zdjęcia: Mark Rutledge
czas: 1h 35min

opis:

After a massive shootout, a mysterious stranger (Van Damme) arrives at a local
hospital on the brink of death. Then, a foreign gang brazenly comes to the hospital
to hunt him down. His nurse, the sole surviving witness to the follow-up shootout,
must face an FBI interrogation that unlocks a plot of international intrigue and
revenge. With enough twists and turns, KILL'EM ALL will keep you guessing until the
final bullet is fired.
Philip po wielkiej szczelaninie prawie ginąc trafia do szpitala, jednak nie jest tam
bezpieczny, gdyż zostaje wytropiony przez tych których to on miał zabić.

http://i.imgur.com/sfiGiPL.jpg
http://i.imgur.com/4t9CwuK.jpg
http://i.imgur.com/GrqwqWr.jpg
http://i.imgur.com/ExVWImU.jpg

subtitles:

http://i.imgur.com/s25yudm.jpg

obsada:

Jean-Claude Van Damme, Autumn Reeser, Kris Van Damme (pierwszy syn Van Damma)

dane techniczne:

Kill'em All (2017)-alE13.mkv
Format : Matroska
Format version : Version 4 / Version 2
File size : 8.35 GiB
Duration : 1 h 35 min
Overall bit rate : 12.5 Mb/s
Movie name : Kill'em All (2017)-alE13
Encoded date : UTC 2017-06-19 04:23:23
Writing application : mkvmerge v8.1.0 ('Psychedelic Postcard') 64bit
Writing library : libebml v1.3.1 + libmatroska v1.4.2
Cover : Yes
Attachments : cover.jpg

Video
ID : 1
Format : AVC
Format/Info : Advanced Video Codec
Format profile : High@L4.1
Format settings, CABAC : Yes
Format settings, ReFrames : 2 frames
Codec ID : V_MPEG4/ISO/AVC
Duration : 1 h 35 min
Bit rate : 11.3 Mb/s
Width : 1 920 pixels
Height : 800 pixels
Display aspect ratio : 2.40:1
Frame rate mode : Constant
Frame rate : 23.976 (24000/1001) FPS
Color space : YUV
Chroma subsampling : 4:2:0
Bit depth : 8 bits
Scan type : Progressive
Bits/(Pixel*Frame) : 0.307
Stream size : 7.54 GiB (90%)
Title : Kill'em All (2017)-alE13
Writing library : x264 core 142
Default : Yes
Forced : No
Color range : Limited
Color primaries : BT.709
Transfer characteristics : BT.709
Matrix coefficients : BT.709

Audio #1
ID : 2
Format : AC-3
Format/Info : Audio Coding 3
Mode extension : CM (complete main)
Format settings, Endianness : Big
Codec ID : A_AC3
Duration : 1 h 35 min
Bit rate mode : Constant
Bit rate : 448 kb/s
Channel(s) : 6 channels
Channel positions : Front: L C R, Side: L R, LFE
Sampling rate : 48.0 kHz
Frame rate : 31.250 FPS (1536 spf)
Compression mode : Lossy
Stream size : 307 MiB (4%)
Title : Kill'em All (2017)-alE13_AC3
Language : English
Default : No
Forced : No

Audio #2
ID : 4
Format : AC-3
Format/Info : Audio Coding 3
Mode extension : CM (complete main)
Format settings, Endianness : Big
Codec ID : A_AC3
Duration : 1 h 35 min
Bit rate mode : Constant
Bit rate : 640 kb/s
Channel(s) : 6 channels
Channel positions : Front: L C R, Side: L R, LFE
Sampling rate : 48.0 kHz
Frame rate : 31.250 FPS (1536 spf)
Compression mode : Lossy
Stream size : 439 MiB (5%)
Title : Kill'em All (2017)-alE13_AC3
Language : Polish
Default : Yes
Forced : No

Audio #3

Plik: Kill'em All (2017)-alE13_DTS_MA .mka

Hash: 7E3D9C3A91BFB86C
Format: Matroska
Czas: 01:35:50.752
Rozmiar: 1.47 GiB (1581557749)

Audio (0):
Kodek: (DTS-HD) DTS-HD
Format: DTS
Kanały: 6 channels
BitRate: 2 198 kb/s / 1 509 kb/s
Tytuł: Kill'em All (2017)-alE13_DTS_MA / Core
Język: English

Lista plików Show/Hide [Pokaż/Ukryj]
Trackery
  • udp://tracker.opentrackr.org:1337/announce
  • udp://p4p.arenabg.ch:1337/announce
  • udp://tracker.coppersurfer.tk:6969/announce
  • http://tracker.devil-torrents.pl/announce
  • http://tracker.torrentyorg.pl/announce
  • udp://tracker.leechers-paradise.org:6969/announce
  • udp://inferno.demonoid.pw:3391/announce
  • udp://tracker.ilibr.org:80/announce

Brak komentarzy!

Żaden z plików nie znajduje się na serwerze. Torrenty są własnością użytkowników. Administrator serwisu nie może ponieść konsekwencji za to co użytkownicy wstawiają, lub za to co czynią na stronie. Nie możesz używać tego serwisu do rozpowszechniania lub ściągania materiałów do których nie masz odpowiednich praw lub licencji. Użytkownicy odpowiedzialni są za przestrzeganie tych zasad.
Copyright © 2016 Ex-Torrents-org.pl

Najlepsze strony Torrentowe