XviD/DivX / Fantasy
Mój sąsiad Totoro Tonari no Totoro (1988) .[1080p].[miniHD] [LEKTOR PL]


Dodał: Uploader
Data dodania:
2017-08-13 00:43:26
Rozmiar: 1.70 GB
Ostat. aktualizacja:
2017-08-19 17:41:51
Seedów: 41
Peerów: 20


Komentarze: 0

...( Info )...

FILM Studia Ghibli
Mój sąsiad Totoro (1988)
Tonari no Totoro
1 godz. 25 min.
reżyseria: Hayao Miyazaki
scenariusz: Hayao Miyazaki
gatunek: Familijny Anime
produkcja: Japonia

...( Opis )...

Film opowiada o dwóch siostrach, Mei (4 lata) i Satsuki (10), które przeprowadzają się wraz z ojcem do starego domu na wsi, aby być bliżej matki leżącej w szpitalu. Satsuki poznaje chłopca z sąsiedztwa o imieniu Kanta (10), który, mimo wcześniejszej antypatii, zaprzyjaźnia się z nią. Pewnego dnia siostry spotykają sympatyczne leśne stworzenia-duchy zwące się Totoro i od tego czasu ich życie zaczyna przepełniać magia. Natura i wyobraźnia pomagają im w potrzebie, ukazując jednocześnie siłę i piękno świata, który ich otacza

...( Dane Techniczne )...

Format : Matroska
Format version : Version 4 / Version 2
File size : 1.70 GiB
Duration : 1 h 26 min
Overall bit rate : 2 819 kb/s

Video
Format : AVC
Duration : 1 h 26 min
Bit rate : 2 499 kb/s
Width : 1 920 pixels
Height : 1 024 pixels
Frame rate : 23.976 (23976/1000) FPS
Stream size : 1.51 GiB (89%)

Audio
Format : AC-3
Bit rate : 320 kb/s
Channel(s) : 2 channels
Channel positions : Front: L R
Sampling rate : 48.0 kHz
Frame rate : 31.250 FPS (1536 spf)
Bit depth : 16 bits
Stream size : 198 MiB (11%)

Lista plików Show/Hide [Pokaż/Ukryj]
Trackery
  • udp://9.rarbg.to:2740/announce
  • udp://tracker.leechers-paradise.org:6969/announce
  • udp://tracker.opentrackr.org:1337/announce
  • http://tracker.electro-torrent.pl/announce
  • http://tracker.vanitycore.co:6969/announce
  • udp://tracker.openbittorrent.com:80/announce

Brak komentarzy!

Żaden z plików nie znajduje się na serwerze. Torrenty są własnością użytkowników. Administrator serwisu nie może ponieść konsekwencji za to co użytkownicy wstawiają, lub za to co czynią na stronie. Nie możesz używać tego serwisu do rozpowszechniania lub ściągania materiałów do których nie masz odpowiednich praw lub licencji. Użytkownicy odpowiedzialni są za przestrzeganie tych zasad.
Copyright © 2016 Ex-Torrents-org.pl

Najlepsze strony Torrentowe